Saw VI (2009)

SAW.6.TS.XVID - IMAGiNE

Screens-
http://lookpic.com/i/783/0aYZvPxi.png
http://lookpic.com/i/429/v0UBuT3D.png

Ripper ...........: IMAGiNE IMDB Rating.......:6.7/10
Video Codec.......: XVID Release Date......:27/10/09
Audio Codec.......:MP3 Theatre Date......:23/10/09
Audio Bitrate.....:128 Runtime.......:1h 25mn
Subtitles.........:NIL Language..........:ENGLISH
Resolution...... 672 x 368 IMDb URL..........:http://www.imdb.com/title/tt1233227/

Video
ID : 0
Format : MPEG-4 Visual
Format profile : AdvancedSimple@L5
Format settings, BVOP : Yes
Format settings, QPel : No
Format settings, GMC : No warppoints
Format settings, Matrix : Custom
Codec ID : XVID
Codec ID/Hint : XviD
Duration : 1h 25mn
Bit rate : 1 270 Kbps
Width : 672 pixels
Height : 368 pixels
Display aspect ratio : 16:9
Frame rate : 23.976 fps
Resolution : 24 bits
Colorimetry : 4:2:0
Scan type : Progressive
Bits/(Pixel*Frame) : 0.214
Stream size : 774 MiB (92%)
Writing library : XviD 1.2.1 (UTC 2008-12-04)

Audio
ID : 1
Format : MPEG Audio
Format version : Version 2
Format profile : Layer 3
Codec ID : 55
Codec ID/Hint : MP3
Duration : 2h 50mn
Bit rate mode : Constant
Bit rate : 96.0 Kbps
Channel(s) : 2 channels
Sampling rate : 22.05 KHz
Resolution : 16 bits
Stream size : 58.5 MiB (7%)
Alignment : Aligned on interleaves
Interleave, duration : 26 ms (0.63 video frame)
Interleave, preload duration : 529 ms

NOTES:

IMAGiNE bringing you another release.....
This time we bring you Saw 6, Changed the Gamma , and saturation a little and of course added our own Audio

Enjoy






Part1
Part2
Part3
Part4
Part5

Advertisements
This entry was posted in Entertainment. Bookmark the permalink.

Leave a Reply

Fill in your details below or click an icon to log in:

WordPress.com Logo

You are commenting using your WordPress.com account. Log Out / Change )

Twitter picture

You are commenting using your Twitter account. Log Out / Change )

Facebook photo

You are commenting using your Facebook account. Log Out / Change )

Google+ photo

You are commenting using your Google+ account. Log Out / Change )

Connecting to %s